<?xml version="1.0" standalone="no"?>
<!DOCTYPE svg PUBLIC "-//W3C//DTD SVG 1.1//EN" "http://www.w3.org/Graphics/SVG/1.1/DTD/svg11.dtd" >
<svg xmlns="http://www.w3.org/2000/svg" xmlns:xlink="http://www.w3.org/1999/xlink" version="1.1">
<metadata>
Created by FontForge 20161116 at Wed Jun  5 18:55:39 2002
 By Jimmy Warting
 The digitally encoded machine readable software for producing the
 Typefaces licensed to you is copyrighted (c) 1988, 1990, 1993, 2002 Adobe Systems.
 All Rights Reserved. This software is the property of Adobe Systems
 Incorporated and its licensors, and may not be reproduced, used, 
 displayed, modified, disclosed or transferred without the express 
 written approval of Adobe.
 
 The digitally encoded machine readable outline data for producing the Typefaces 
 provided as part of your laser printer is copyrighted (c) 1981, 2002 Heidelberger Druckmaschinen AG. 
 All rights reserved. This data is the property of Heidelberger Druckmaschinen AG, 
 and may not be reproduced, used, displayed, modified, disclosed or transferred 
 without the express written approval of Heidelberger Druckmaschinen AG. 
</metadata>
<defs>
<font id="HelveticaNeueLTStd-UltLt" horiz-adv-x="500" >
  <font-face 
    font-family="Helvetica Neue LT Std"
    font-weight="275"
    font-stretch="normal"
    units-per-em="1000"
    panose-1="2 11 3 3 2 2 2 2 2 4"
    ascent="714"
    descent="-286"
    x-height="514"
    cap-height="714"
    bbox="-166 -214 1016 931"
    underline-thickness="50"
    underline-position="-100"
    stemh="20"
    stemv="20"
    unicode-range="U+0020-FB02"
  />
<missing-glyph 
d="M0 0v700h500v-700h-500zM250 395l170 255h-340zM280 350l170 -255v510zM80 50h340l-170 255zM50 605v-510l170 255z" />
    <glyph glyph-name="fi" unicode="fi" horiz-adv-x="333" 
d="M278 514v-514h-20v514h20zM278 714v-101h-20v101h20zM87 494h-88v20h88v114c0 82 58 86 101 86c18 0 32 -3 43 -4v-20c-19 3 -32 4 -47 4c-64 0 -77 -23 -77 -73v-107h111v-20h-111v-494h-20v494z" />
    <glyph glyph-name="fl" unicode="fl" horiz-adv-x="333" 
d="M87 494h-88v20h88v114c0 82 58 86 101 86c18 0 32 -3 43 -4v-20c-19 3 -32 4 -47 4c-64 0 -77 -23 -77 -73v-107h111v-20h-111v-494h-20v494zM278 714v-714h-20v714h20z" />
    <glyph glyph-name=".notdef" 
d="M0 0v700h500v-700h-500zM250 395l170 255h-340zM280 350l170 -255v510zM80 50h340l-170 255zM50 605v-510l170 255z" />
    <glyph glyph-name="space" unicode=" " horiz-adv-x="278" 
 />
    <glyph glyph-name="exclam" unicode="!" horiz-adv-x="185" 
d="M103 0h-20v98h20v-98zM103 182h-20v532h20v-532z" />
    <glyph glyph-name="quotedbl" unicode="&#x22;" horiz-adv-x="278" 
d="M93 714v-225h-20v225h20zM205 714v-225h-20v225h20z" />
    <glyph glyph-name="numbersign" unicode="#" horiz-adv-x="556" 
d="M225 680h20l-31 -234h171l31 234h20l-31 -234h116v-20h-121l-24 -177h117v-20h-121l-31 -229h-20l31 229h-172l-31 -229h-20l31 229h-125v20h130l24 177h-126v20h131zM209 426l-24 -177h171l24 177h-171z" />
    <glyph glyph-name="dollar" unicode="$" horiz-adv-x="556" 
d="M265 381v330c-100 -1 -218 -39 -218 -164c0 -119 105 -141 218 -166zM6 237h20c0 -163 97 -228 239 -233v356c-115 26 -238 48 -238 187c0 140 125 183 238 184v43h20v-44c133 -3 231 -62 238 -216h-20c-5 141 -96 193 -218 196v-334l8 -2c133 -34 244 -50 244 -199
c0 -135 -130 -192 -252 -192v-88h-20v89c-152 6 -262 81 -259 253zM285 355v-352c112 0 232 50 232 173c0 136 -126 154 -232 179z" />
    <glyph glyph-name="percent" unicode="%" horiz-adv-x="685" 
d="M377 157c0 -81 43 -149 132 -149s135 69 135 149c0 91 -43 153 -135 153s-132 -65 -132 -153zM357 157c0 101 55 173 152 173c101 0 155 -72 155 -172c0 -92 -55 -170 -155 -170c-105 0 -152 81 -152 169zM21 519c0 101 55 173 152 173c101 0 155 -72 155 -172
c0 -92 -55 -170 -155 -170c-105 0 -152 81 -152 169zM41 519c0 -81 43 -149 132 -149s135 69 135 149c0 91 -43 153 -135 153s-132 -65 -132 -153zM88 -34l476 748h23l-476 -748h-23z" />
    <glyph glyph-name="ampersand" unicode="&#x26;" horiz-adv-x="574" 
d="M150 583c0 -46 31 -86 103 -179c57 39 149 94 149 177c0 70 -59 113 -125 113c-69 0 -127 -41 -127 -111zM444 132l-196 246c-81 -51 -184 -107 -184 -218c0 -102 92 -157 184 -157c95 0 159 54 196 129zM467 133l105 -133h-26l-89 113c-40 -73 -107 -130 -209 -130
c-100 0 -204 67 -204 177c0 116 107 181 192 234c-39 55 -106 120 -106 187c0 92 75 133 146 133c79 0 146 -49 146 -133c0 -94 -92 -144 -157 -192l188 -238c13 29 26 73 24 126h20c1 -59 -10 -99 -30 -144z" />
    <glyph glyph-name="quoteright" unicode="&#x2019;" horiz-adv-x="167" 
d="M74 714h20v-118c0 -71 -10 -88 -45 -107v20c20 13 25 37 25 87v118z" />
    <glyph glyph-name="parenleft" unicode="(" horiz-adv-x="222" 
d="M184 731h20c-74 -137 -116 -292 -116 -449c0 -160 40 -319 117 -459h-20c-78 151 -117 287 -117 459c0 156 42 312 116 449z" />
    <glyph glyph-name="parenright" unicode=")" horiz-adv-x="222" 
d="M38 -177h-20c74 137 116 292 116 449c0 160 -40 319 -117 459h20c78 -151 117 -287 117 -459c0 -156 -42 -312 -116 -449z" />
    <glyph glyph-name="asterisk" unicode="*" horiz-adv-x="352" 
d="M164 714h20v-140l132 43l4 -19l-130 -43l83 -109l-16 -12l-83 108l-84 -104l-16 13l88 104l-130 43l6 19l126 -43v140z" />
    <glyph glyph-name="plus" unicode="+" horiz-adv-x="600" 
d="M290 263v243h20v-243h242v-20h-242v-243h-20v243h-242v20h242z" />
    <glyph glyph-name="comma" unicode="," horiz-adv-x="278" 
d="M129 98h20v-98c0 -60 -11 -96 -44 -119v20c17 17 24 45 24 99v98z" />
    <glyph glyph-name="hyphen" unicode="-" horiz-adv-x="333" 
d="M79 258v20h175v-20h-175z" />
    <glyph glyph-name="period" unicode="." horiz-adv-x="278" 
d="M149 98v-98h-20v98h20z" />
    <glyph glyph-name="slash" unicode="/" horiz-adv-x="333" 
d="M13 -17h-20l327 748h20z" />
    <glyph glyph-name="zero" unicode="0" horiz-adv-x="556" 
d="M515 340c0 151 -51 332 -237 332s-237 -181 -237 -332s51 -332 237 -332s237 181 237 332zM535 340c0 -170 -62 -352 -257 -352s-257 182 -257 352s62 352 257 352s257 -182 257 -352z" />
    <glyph glyph-name="one" unicode="1" horiz-adv-x="556" 
d="M298 0v654h-2c-41 -57 -114 -101 -181 -120v20c82 28 124 61 181 126h22v-680h-20z" />
    <glyph glyph-name="two" unicode="2" horiz-adv-x="556" 
d="M75 20h438v-20h-458c-2 114 112 184 214 256c104 71 206 146 206 253c0 106 -81 163 -189 163c-142 0 -199 -90 -199 -215h-20c1 149 75 235 219 235c116 0 209 -61 209 -183c0 -113 -101 -191 -204 -263c-105 -72 -206 -138 -216 -226z" />
    <glyph glyph-name="three" unicode="3" horiz-adv-x="556" 
d="M79 469h-20c-2 147 90 223 232 223c108 0 213 -46 213 -167c0 -96 -63 -150 -146 -158v-2c80 -8 159 -60 159 -177c0 -126 -107 -200 -230 -200c-154 0 -257 87 -247 242h20c-11 -145 85 -222 227 -222c109 0 210 63 210 180c0 116 -83 164 -195 168h-49v20h49
c88 0 182 38 182 149c-2 109 -98 147 -193 147c-130 0 -214 -67 -212 -203z" />
    <glyph glyph-name="four" unicode="4" horiz-adv-x="556" 
d="M379 197v455h-2l-323 -455h325zM379 177h-345v24l340 479h25v-483h123v-20h-123v-177h-20v177z" />
    <glyph glyph-name="five" unicode="5" horiz-adv-x="556" 
d="M480 660h-333l-62 -291h2c38 62 107 92 186 92c140 0 235 -98 235 -235c0 -144 -95 -238 -235 -238c-142 0 -240 85 -236 230h20c-4 -133 84 -210 216 -210c131 0 215 86 215 218c0 126 -86 215 -215 215c-80 0 -153 -36 -190 -104h-25l73 343h349v-20z" />
    <glyph glyph-name="six" unicode="6" horiz-adv-x="556" 
d="M497 223c0 119 -96 215 -215 215s-215 -96 -215 -215s96 -215 215 -215s215 96 215 215zM505 520h-20c-27 123 -122 152 -191 152c-203 0 -239 -229 -236 -385h2c20 96 113 171 222 171c118 0 235 -95 235 -235c0 -136 -110 -235 -235 -235c-93 0 -164 54 -198 107
c-39 60 -45 139 -45 226c0 169 57 371 256 371c118 0 196 -76 210 -172z" />
    <glyph glyph-name="seven" unicode="7" horiz-adv-x="556" 
d="M473 660h-412v20h434v-27c-185 -185 -307 -382 -307 -653h-20c-3 267 121 477 305 660z" />
    <glyph glyph-name="eight" unicode="8" horiz-adv-x="556" 
d="M505 190c0 131 -109 172 -227 172s-227 -41 -227 -172s108 -182 227 -182s227 51 227 182zM351 375v-2c107 -10 174 -79 174 -183c0 -141 -114 -202 -247 -202s-247 61 -247 202c0 104 67 173 174 183v2c-78 10 -140 67 -140 145c0 122 95 172 213 172s213 -50 213 -172
c0 -78 -62 -135 -140 -145zM471 520c0 116 -95 152 -193 152s-193 -36 -193 -152c0 -97 103 -138 193 -138s193 41 193 138z" />
    <glyph glyph-name="nine" unicode="9" horiz-adv-x="556" 
d="M51 160h20c27 -123 122 -152 191 -152c203 0 239 229 236 385h-2c-20 -96 -113 -171 -222 -171c-118 0 -235 95 -235 235c0 136 110 235 235 235c93 0 164 -54 198 -107c40 -60 46 -139 46 -226c0 -169 -58 -371 -257 -371c-118 0 -196 76 -210 172zM489 457
c0 119 -96 215 -215 215s-215 -96 -215 -215s96 -215 215 -215s215 96 215 215z" />
    <glyph glyph-name="colon" unicode=":" horiz-adv-x="278" 
d="M149 0h-20v98h20v-98zM149 416h-20v98h20v-98z" />
    <glyph glyph-name="semicolon" unicode=";" horiz-adv-x="278" 
d="M149 98v-98c0 -60 -11 -96 -44 -119v20c17 17 24 45 24 99v98h20zM149 416h-20v98h20v-98z" />
    <glyph glyph-name="less" unicode="&#x3c;" horiz-adv-x="600" 
d="M554 13v-21l-508 249v24l508 249v-21l-490 -240z" />
    <glyph glyph-name="equal" unicode="=" horiz-adv-x="600" 
d="M552 340h-504v20h504v-20zM552 146h-504v20h504v-20z" />
    <glyph glyph-name="greater" unicode="&#x3e;" horiz-adv-x="600" 
d="M46 13l490 240l-490 240v21l508 -249v-24l-508 -249v21z" />
    <glyph glyph-name="question" unicode="?" 
d="M55 493h-20c-5 139 76 238 217 238c110 0 197 -60 197 -166c0 -100 -65 -150 -98 -179c-72 -70 -99 -107 -99 -204h-20c0 90 23 139 98 212c16 16 99 69 99 171c0 94 -75 146 -177 146c-132 0 -202 -89 -197 -218zM252 0h-20v98h20v-98z" />
    <glyph glyph-name="at" unicode="@" horiz-adv-x="800" 
d="M488 272l71 184c-19 69 -80 90 -132 90c-126 0 -213 -158 -213 -269c0 -71 50 -125 120 -125c53 0 117 24 154 120zM570 481l24 66h21l-111 -288c-23 -59 -29 -107 25 -107c82 0 193 112 194 259c1 166 -130 281 -304 281c-195 0 -342 -152 -342 -339
c0 -227 159 -345 342 -345c122 0 228 69 290 158h23c-65 -107 -190 -178 -313 -178c-178 0 -362 112 -362 365c0 207 164 359 362 359c179 0 323 -116 324 -301c1 -154 -119 -279 -216 -279c-39 0 -66 26 -59 63h-2c-37 -51 -89 -63 -136 -63c-77 0 -136 64 -136 145
c0 124 95 289 237 289c62 0 120 -32 137 -85h2z" />
    <glyph glyph-name="A" unicode="A" horiz-adv-x="575" 
d="M114 255h348l-170 439h-2zM470 235h-364l-95 -235h-23l290 714h26l282 -714h-22z" />
    <glyph glyph-name="B" unicode="B" horiz-adv-x="611" 
d="M67 362v-342h284c116 0 206 56 206 173c0 125 -102 169 -203 169h-287zM47 0v714h307c112 0 201 -59 201 -178c0 -86 -64 -157 -151 -163v-2c93 -3 173 -67 173 -177c0 -128 -98 -194 -235 -194h-295zM67 694v-312h287c95 0 181 52 181 154c0 108 -79 158 -181 158h-287z
" />
    <glyph glyph-name="C" unicode="C" horiz-adv-x="685" 
d="M642 280h20c-24 -174 -134 -297 -314 -297c-190 0 -323 154 -323 368c0 173 93 380 336 380c189 0 282 -143 285 -231h-20c-9 103 -109 211 -265 211c-235 0 -316 -212 -316 -360c0 -182 110 -348 303 -348c172 0 272 119 294 277z" />
    <glyph glyph-name="D" unicode="D" horiz-adv-x="648" 
d="M54 0v714h250c142 0 304 -76 304 -357c0 -256 -163 -357 -335 -357h-219zM74 694v-674h204c169 0 310 107 310 337c0 267 -146 337 -289 337h-225z" />
    <glyph glyph-name="E" unicode="E" horiz-adv-x="537" 
d="M74 362v-342h458v-20h-478v714h474v-20h-454v-312h427v-20h-427z" />
    <glyph glyph-name="F" unicode="F" horiz-adv-x="481" 
d="M74 694v-312h380v-20h-380v-362h-20v714h440v-20h-420z" />
    <glyph glyph-name="G" unicode="G" horiz-adv-x="722" 
d="M654 314h-277v20h297v-335h-20v178h-2c-37 -121 -146 -194 -285 -194c-221 0 -335 168 -335 374c0 209 125 374 335 374c160 0 273 -94 296 -240h-20c-25 133 -128 220 -276 220c-199 0 -315 -160 -315 -354s107 -354 318 -354c158 0 284 116 284 274v37z" />
    <glyph glyph-name="H" unicode="H" horiz-adv-x="648" 
d="M574 362h-500v-362h-20v714h20v-332h500v332h20v-714h-20v362z" />
    <glyph glyph-name="I" unicode="I" horiz-adv-x="128" 
d="M54 0v714h20v-714h-20z" />
    <glyph glyph-name="J" unicode="J" horiz-adv-x="463" 
d="M384 201v513h20v-528c0 -119 -52 -203 -196 -203c-135 0 -190 84 -190 195v43h20v-43c0 -117 60 -175 170 -175c114 0 176 48 176 198z" />
    <glyph glyph-name="K" unicode="K" horiz-adv-x="593" 
d="M238 398l-164 -145v-253h-20v714h20v-434l495 434h30l-345 -304l365 -410h-27z" />
    <glyph glyph-name="L" unicode="L" horiz-adv-x="481" 
d="M74 20h417v-20h-437v714h20v-694z" />
    <glyph glyph-name="M" unicode="M" horiz-adv-x="780" 
d="M391 26l302 688h33v-714h-20v689h-2l-303 -689h-22l-303 689h-2v-689h-20v714h33l302 -688h2z" />
    <glyph glyph-name="N" unicode="N" horiz-adv-x="648" 
d="M54 0v714h30l488 -689h2v689h20v-714h-30l-488 689h-2v-689h-20z" />
    <glyph glyph-name="O" unicode="O" horiz-adv-x="721" 
d="M52 357c2 -206 117 -354 309 -354s307 148 309 354c-2 206 -117 354 -309 354s-307 -148 -309 -354zM32 357c0 203 115 374 329 374s329 -171 329 -374s-115 -374 -329 -374s-329 171 -329 374z" />
    <glyph glyph-name="P" unicode="P" horiz-adv-x="574" 
d="M74 694v-349h269c112 0 197 63 197 174c0 112 -66 175 -197 175h-269zM74 325v-325h-20v714h289c136 0 217 -66 217 -195c0 -126 -95 -194 -227 -194h-259z" />
    <glyph glyph-name="Q" unicode="Q" horiz-adv-x="721" 
d="M553 70l-126 86l11 16l129 -89c65 62 102 159 103 274c-2 206 -117 354 -309 354s-307 -148 -309 -354c2 -206 117 -354 309 -354c77 0 142 24 192 67zM689 -22l-118 80c-53 -47 -124 -75 -210 -75c-214 0 -329 171 -329 374s115 374 329 374s329 -171 329 -374
c0 -113 -36 -217 -106 -286l115 -79z" />
    <glyph glyph-name="R" unicode="R" horiz-adv-x="611" 
d="M74 694v-339h267c105 0 204 53 203 178c-1 101 -57 161 -193 161h-277zM74 335v-335h-20v714h292c147 0 215 -60 218 -183c2 -94 -53 -162 -153 -184v-2c121 -16 141 -84 141 -198c0 -43 4 -127 17 -147h-22c-12 30 -15 104 -15 150c0 117 -25 185 -189 185h-269z" />
    <glyph glyph-name="S" unicode="S" horiz-adv-x="611" 
d="M551 514h-20c-5 146 -103 197 -232 197c-101 0 -224 -36 -224 -164c0 -129 124 -144 246 -173c133 -34 244 -50 244 -199c0 -135 -130 -192 -252 -192c-162 0 -282 74 -279 254h20c0 -171 107 -234 259 -234c112 0 232 50 232 173c0 144 -140 156 -250 183
c-116 27 -240 48 -240 188c0 142 129 184 244 184c140 0 245 -57 252 -217z" />
    <glyph glyph-name="T" unicode="T" 
d="M240 694h-257v20h534v-20h-257v-694h-20v694z" />
    <glyph glyph-name="U" unicode="U" horiz-adv-x="632" 
d="M558 266v448h20v-448c0 -189 -94 -283 -262 -283s-262 94 -262 283v448h20v-448c0 -170 79 -263 242 -263s242 93 242 263z" />
    <glyph glyph-name="V" unicode="V" horiz-adv-x="538" 
d="M274 26l262 688h20l-272 -714h-22l-280 714h20l270 -688h2z" />
    <glyph glyph-name="W" unicode="W" horiz-adv-x="870" 
d="M661 25l199 689h20l-207 -714h-27l-210 689h-2l-206 -689h-27l-211 714h21l202 -689h2l206 689h29l209 -689h2z" />
    <glyph glyph-name="X" unicode="X" horiz-adv-x="520" 
d="M261 383l249 331h25l-260 -347l272 -367h-25l-261 351l-263 -351h-25l275 367l-260 347h26z" />
    <glyph glyph-name="Y" unicode="Y" horiz-adv-x="538" 
d="M269 322l275 392h24l-289 -413v-301h-20v301l-289 413h25z" />
    <glyph glyph-name="Z" unicode="Z" 
d="M1 20h507v-20h-527v27l499 667h-471v20h491v-27z" />
    <glyph glyph-name="bracketleft" unicode="[" horiz-adv-x="222" 
d="M96 731h113v-20h-93v-868h93v-20h-113v908z" />
    <glyph glyph-name="backslash" unicode="\" horiz-adv-x="333" 
d="M340 -17h-20l-327 748h20z" />
    <glyph glyph-name="bracketright" unicode="]" horiz-adv-x="222" 
d="M126 -177h-113v20h93v868h-93v20h113v-908z" />
    <glyph glyph-name="asciicircum" unicode="^" horiz-adv-x="600" 
d="M310 680l231 -453h-20l-221 433l-221 -433h-20l231 453h20z" />
    <glyph glyph-name="underscore" unicode="_" 
d="M500 -125h-500v50h500v-50z" />
    <glyph glyph-name="quoteleft" unicode="&#x2018;" horiz-adv-x="167" 
d="M93 489h-20v118c0 71 10 88 45 107v-20c-20 -13 -25 -37 -25 -87v-118z" />
    <glyph glyph-name="a" unicode="a" horiz-adv-x="481" 
d="M400 207v95h-2c-27 -39 -116 -35 -199 -41c-81 -6 -157 -24 -157 -134c0 -59 38 -119 150 -119c134 0 208 98 208 199zM74 355h-20c5 97 69 171 196 171c91 0 167 -35 170 -147v-327c0 -39 37 -35 65 -32v-20c-39 -3 -85 -3 -85 50v67h-2c-20 -66 -98 -129 -204 -129
c-102 0 -172 48 -172 139c0 127 91 148 177 154c141 8 201 5 201 83c0 62 -13 142 -150 142c-107 0 -169 -55 -176 -151z" />
    <glyph glyph-name="b" unicode="b" horiz-adv-x="537" 
d="M75 256c0 -133 76 -248 208 -248c133 0 199 116 199 248c0 119 -58 250 -199 250c-125 0 -208 -91 -208 -250zM75 714v-344h2c24 93 97 156 206 156c142 0 219 -126 219 -270c0 -155 -83 -268 -219 -268c-105 0 -180 66 -206 156h-2v-144h-20v714h20z" />
    <glyph glyph-name="c" unicode="c" 
d="M449 175h20c-11 -115 -94 -187 -210 -187c-146 0 -228 118 -228 258c0 149 75 280 240 280c96 0 181 -59 194 -168h-20c-16 100 -89 148 -174 148c-164 0 -220 -139 -220 -260c0 -126 72 -238 208 -238c101 0 182 64 190 167z" />
    <glyph glyph-name="d" unicode="d" horiz-adv-x="537" 
d="M455 256c0 159 -83 250 -208 250c-141 0 -199 -131 -199 -250c0 -132 66 -248 199 -248c132 0 208 115 208 248zM455 370v344h20v-714h-20v144h-2c-26 -90 -101 -156 -206 -156c-136 0 -219 113 -219 268c0 144 77 270 219 270c109 0 182 -63 206 -156h2z" />
    <glyph glyph-name="e" unicode="e" 
d="M45 273h410c1 126 -70 233 -203 233c-111 0 -200 -89 -207 -233zM475 253h-430c2 -138 57 -245 203 -245c106 0 184 59 201 170h20c-14 -118 -102 -190 -219 -190c-159 -2 -225 116 -225 269c0 171 109 269 225 269c160 0 231 -132 225 -273z" />
    <glyph glyph-name="f" unicode="f" horiz-adv-x="204" 
d="M87 494h-88v20h88v114c0 82 58 86 101 86c18 0 32 -3 43 -4v-20c-19 3 -32 4 -47 4c-64 0 -77 -23 -77 -73v-107h111v-20h-111v-494h-20v494z" />
    <glyph glyph-name="g" unicode="g" horiz-adv-x="519" 
d="M445 274c1 118 -67 232 -196 232c-133 0 -201 -107 -201 -232c0 -127 68 -226 193 -226c132 0 204 102 204 226zM446 17v155h-2c-21 -91 -114 -144 -202 -144c-143 0 -214 114 -214 246c0 138 76 252 221 252c98 0 175 -65 195 -149h2v137h20v-497
c0 -140 -80 -206 -214 -206c-104 0 -193 47 -196 162h20c4 -102 82 -142 175 -142c124 0 195 59 195 186z" />
    <glyph glyph-name="h" unicode="h" 
d="M55 0v714h20v-327h2c19 79 84 139 185 139c107 0 183 -66 183 -185v-341h-20v338c0 119 -76 168 -163 168c-123 0 -187 -101 -187 -215v-291h-20z" />
    <glyph glyph-name="i" unicode="i" horiz-adv-x="130" 
d="M75 514v-514h-20v514h20zM75 714v-101h-20v101h20z" />
    <glyph glyph-name="j" unicode="j" horiz-adv-x="130" 
d="M75 514v-589c0 -95 -45 -101 -124 -102v20c78 0 104 4 104 89v582h20zM75 714v-101h-20v101h20z" />
    <glyph glyph-name="k" unicode="k" horiz-adv-x="444" 
d="M208 304l-133 -110v-194h-20v714h20v-495l355 295h29l-236 -196l253 -318h-27z" />
    <glyph glyph-name="l" unicode="l" horiz-adv-x="130" 
d="M55 0v714h20v-714h-20z" />
    <glyph glyph-name="m" unicode="m" horiz-adv-x="778" 
d="M55 0v514h20v-127h2c19 79 84 139 164 139c80 2 137 -44 154 -120h2c20 71 85 120 163 120c124 0 163 -77 163 -188v-338h-20v338c0 102 -31 168 -143 168c-101 0 -160 -84 -161 -180v-326h-20v330c1 95 -24 176 -138 176c-102 0 -166 -101 -166 -215v-291h-20z" />
    <glyph glyph-name="n" unicode="n" 
d="M55 0v514h20v-127h2c19 79 84 139 185 139c107 0 183 -66 183 -185v-341h-20v338c0 119 -76 168 -163 168c-123 0 -187 -101 -187 -215v-291h-20z" />
    <glyph glyph-name="o" unicode="o" horiz-adv-x="519" 
d="M28 257c0 140 81 269 232 269c150 0 231 -129 231 -269c0 -141 -81 -269 -232 -269c-150 0 -231 128 -231 269zM48 257c0 -130 73 -249 212 -249c137 0 211 119 211 249c0 128 -74 249 -211 249c-139 0 -212 -121 -212 -249z" />
    <glyph glyph-name="p" unicode="p" horiz-adv-x="537" 
d="M283 8c141 0 199 131 199 250c0 132 -66 248 -199 248c-132 0 -208 -115 -208 -248c0 -159 83 -250 208 -250zM75 144v-321h-20v691h20v-144h2c26 90 101 156 206 156c136 0 219 -113 219 -268c0 -144 -77 -270 -219 -270c-109 0 -182 63 -206 156h-2z" />
    <glyph glyph-name="q" unicode="q" horiz-adv-x="537" 
d="M455 370v144h20v-691h-20v321h-2c-24 -93 -97 -156 -206 -156c-142 0 -219 126 -219 270c0 155 83 268 219 268c105 0 180 -66 206 -156h2zM455 258c0 133 -76 248 -208 248c-133 0 -199 -116 -199 -248c0 -119 58 -250 199 -250c125 0 208 91 208 250z" />
    <glyph glyph-name="r" unicode="r" horiz-adv-x="259" 
d="M75 291v-291h-20v514h20v-127h2c19 76 79 143 202 139v-20c-141 7 -204 -103 -204 -215z" />
    <glyph glyph-name="s" unicode="s" horiz-adv-x="463" 
d="M410 362h-20c0 103 -68 144 -166 144c-144 0 -154 -91 -154 -109c0 -51 22 -76 57 -90c36 -14 77 -23 132 -38c79 -20 165 -40 165 -138c0 -103 -97 -143 -186 -143c-135 0 -208 59 -208 188h20c0 -114 69 -168 188 -168c74 0 166 33 166 121c0 91 -89 105 -177 127
c-49 12 -86 22 -115 35c-42 18 -62 51 -62 106c0 57 46 129 174 129c114 0 186 -50 186 -164z" />
    <glyph glyph-name="t" unicode="t" horiz-adv-x="241" 
d="M226 494h-116v-394c0 -77 38 -80 69 -80c20 0 38 1 44 3v-20c-12 -1 -18 -3 -49 -3c-47 0 -84 23 -84 96v398h-95v20h95v162h20v-162h116v-20z" />
    <glyph glyph-name="u" unicode="u" 
d="M445 514v-514h-20v127h-2c-19 -79 -84 -139 -185 -139c-107 0 -183 66 -183 185v341h20v-338c0 -119 76 -168 163 -168c123 0 187 101 187 215v291h20z" />
    <glyph glyph-name="v" unicode="v" horiz-adv-x="407" 
d="M213 20l184 494h22l-194 -514h-25l-212 514h24l199 -494h2z" />
    <glyph glyph-name="w" unicode="w" horiz-adv-x="685" 
d="M517 20l156 494h20l-164 -514h-26l-160 494h-2l-161 -494h-28l-160 514h20l153 -494h2l159 494h31l158 -494h2z" />
    <glyph glyph-name="x" unicode="x" horiz-adv-x="407" 
d="M203 281l177 233h24l-188 -248l206 -266h-25l-194 251l-193 -251h-25l206 266l-187 248h26z" />
    <glyph glyph-name="y" unicode="y" horiz-adv-x="407" 
d="M214 27l184 487h21l-237 -619c-27 -70 -74 -72 -136 -72v20c68 -1 96 4 120 66l37 96l-215 509h22z" />
    <glyph glyph-name="z" unicode="z" horiz-adv-x="407" 
d="M26 20h376v-20h-397v25l360 469h-333v20h354v-25z" />
    <glyph glyph-name="braceleft" unicode="{" horiz-adv-x="333" 
d="M280 -177h-50c-56 0 -73 35 -73 111v163c0 81 -13 135 -72 173v20c43 7 72 86 72 167v165c0 76 17 109 73 109h50v-20h-48c-40 0 -55 -25 -55 -107v-164c0 -59 -21 -140 -72 -162c44 -21 72 -88 72 -164v-162c0 -89 17 -109 55 -109h48v-20z" />
    <glyph glyph-name="bar" unicode="|" horiz-adv-x="222" 
d="M121 -214h-20v1000h20v-1000z" />
    <glyph glyph-name="braceright" unicode="}" horiz-adv-x="333" 
d="M53 731h50c56 0 73 -35 73 -111v-163c0 -81 13 -135 72 -173v-20c-43 -7 -72 -86 -72 -167v-165c0 -76 -17 -109 -73 -109h-50v20h48c40 0 55 25 55 107v164c0 59 21 140 72 162c-44 21 -72 88 -72 164v162c0 89 -17 109 -55 109h-48v20z" />
    <glyph glyph-name="asciitilde" unicode="~" horiz-adv-x="600" 
d="M503 301l20 -6c-26 -42 -57 -86 -109 -86c-33 0 -62 17 -97 32c-34 16 -70 37 -122 37c-45 0 -74 -31 -98 -73l-20 6c25 47 62 87 118 87c36 2 78 -16 117 -34c40 -17 77 -35 103 -35c40 0 65 37 88 72z" />
    <glyph glyph-name="exclamdown" unicode="&#xa1;" horiz-adv-x="185" 
d="M83 542h20v-98h-20v98zM83 360h20v-537h-20v537z" />
    <glyph glyph-name="cent" unicode="&#xa2;" horiz-adv-x="556" 
d="M272 8v497c-131 -5 -193 -127 -193 -247c0 -123 61 -245 193 -250zM292 505v-497h5c98 0 170 71 180 167h20c-14 -117 -95 -186 -205 -187v-109h-20v109c-143 5 -213 134 -213 270c0 132 72 262 213 267v88h20v-88c103 -3 188 -58 200 -167h-20c-15 98 -87 145 -180 147z
" />
    <glyph glyph-name="sterling" unicode="&#xa3;" horiz-adv-x="556" 
d="M138 365h158v-20h-149c23 -41 30 -89 30 -136c0 -76 -38 -139 -99 -191l2 -2c25 19 61 37 102 37c33 0 67 -13 99 -24c33 -13 66 -26 96 -26c64 0 103 34 153 83l13 -14c-58 -66 -105 -89 -166 -89c-33 0 -67 12 -100 25c-33 11 -65 25 -95 25c-47 0 -87 -19 -125 -50
l-18 20c65 55 118 127 118 206c0 51 -12 102 -32 136h-76v20h66c-26 52 -70 118 -70 180c0 127 109 186 226 186c153 0 247 -97 230 -251h-20c14 150 -76 231 -210 231c-103 0 -206 -48 -206 -166c0 -62 46 -127 73 -180z" />
    <glyph glyph-name="fraction" unicode="&#x2044;" horiz-adv-x="167" 
d="M-166 -34l476 748h23l-476 -748h-23z" />
    <glyph glyph-name="yen" unicode="&#xa5;" horiz-adv-x="556" 
d="M287 305v-102h147v-20h-147v-183h-20v183h-147v20h147v102h-147v20h138l-237 389h22l234 -383h2l234 383h22l-237 -389h136v-20h-147z" />
    <glyph glyph-name="florin" unicode="&#x192;" horiz-adv-x="556" 
d="M281 411l-92 -466c-12 -63 -49 -122 -126 -122c-17 0 -34 1 -50 6l5 20c14 -4 28 -6 42 -6c67 0 96 44 108 106l91 462h-119l4 20h119l39 195c15 74 61 105 132 105c18 0 38 -2 55 -7l-4 -19c-16 3 -34 6 -53 6c-61 0 -95 -23 -110 -96l-37 -184h127l-4 -20h-127z" />
    <glyph glyph-name="section" unicode="&#xa7;" horiz-adv-x="556" 
d="M442 546h-20c-3 102 -53 165 -153 165c-52 0 -140 -25 -136 -115c2 -51 27 -77 57 -99c48 -35 80 -46 135 -81c143 -92 174 -134 174 -212c0 -73 -76 -124 -117 -136c52 -43 62 -83 59 -123c-7 -93 -82 -134 -163 -134c-112 0 -178 70 -175 194h20
c-1 -102 43 -173 155 -174c103 -1 143 69 143 114c0 53 -9 78 -80 129c-44 32 -118 74 -176 113c-95 64 -108 108 -108 163c0 63 54 119 109 139c-26 22 -53 54 -53 109c0 112 105 133 158 133c105 0 171 -74 171 -185zM479 205c0 66 -29 107 -165 194
c-33 21 -103 59 -130 76c-29 -9 -107 -48 -107 -133c0 -31 7 -79 100 -139c59 -38 141 -88 186 -121c40 9 116 52 116 123z" />
    <glyph glyph-name="currency" unicode="&#xa4;" horiz-adv-x="556" 
d="M446 522l57 57l14 -14l-57 -57c44 -47 66 -107 66 -168c0 -60 -22 -120 -66 -168l57 -57l-14 -14l-57 57c-47 -43 -107 -65 -168 -66c-60 0 -120 22 -168 66l-57 -57l-14 14l57 57c-44 48 -66 108 -66 168c1 61 23 121 66 168l-57 57l14 14l57 -57c48 44 108 66 168 66
c61 0 121 -22 168 -66zM506 340c0 126 -102 228 -228 228c-125 0 -228 -103 -228 -228s103 -228 228 -228s228 103 228 228z" />
    <glyph glyph-name="quotesingle" unicode="'" horiz-adv-x="167" 
d="M74 489v225h20v-225h-20z" />
    <glyph glyph-name="quotedblleft" unicode="&#x201c;" horiz-adv-x="278" 
d="M103 489h-20v118c0 71 10 88 45 107v-20c-20 -13 -25 -37 -25 -87v-118zM203 489h-20v118c0 71 10 88 45 107v-20c-20 -13 -25 -37 -25 -87v-118z" />
    <glyph glyph-name="guillemotleft" unicode="&#xab;" horiz-adv-x="352" 
d="M169 156v-35l-103 139v16l103 139v-35l-83 -112zM262 156v-35l-103 139v16l103 139v-35l-83 -112z" />
    <glyph glyph-name="guilsinglleft" unicode="&#x2039;" horiz-adv-x="259" 
d="M169 156v-35l-103 139v16l103 139v-35l-83 -112z" />
    <glyph glyph-name="guilsinglright" unicode="&#x203a;" horiz-adv-x="259" 
d="M90 380v35l103 -139v-16l-103 -139v35l83 112z" />
    <glyph glyph-name="endash" unicode="&#x2013;" 
d="M0 258v20h500v-20h-500z" />
    <glyph glyph-name="dagger" unicode="&#x2020;" horiz-adv-x="556" 
d="M268 714h20v-243h208v-20h-208v-591h-20v591h-208v20h208v243z" />
    <glyph glyph-name="daggerdbl" unicode="&#x2021;" horiz-adv-x="556" 
d="M268 57h-208v20h208v420h-208v20h208v197h20v-197h208v-20h-208v-420h208v-20h-208v-197h-20v197z" />
    <glyph glyph-name="periodcentered" unicode="&#xb7;" horiz-adv-x="278" 
d="M107 340c0 18 14 32 32 32s32 -14 32 -32s-14 -32 -32 -32s-32 14 -32 32z" />
    <glyph glyph-name="paragraph" unicode="&#xb6;" horiz-adv-x="600" 
d="M289 714h202v-854h-20v834h-163v-834h-20v468c-132 0 -222 87 -222 190c0 126 83 196 223 196z" />
    <glyph glyph-name="bullet" unicode="&#x2022;" 
d="M72 357c0 99 79 178 178 178s179 -79 179 -178s-80 -179 -179 -179s-178 80 -178 179z" />
    <glyph glyph-name="quotesinglbase" unicode="&#x201a;" horiz-adv-x="167" 
d="M73 98h20v-98c0 -60 -11 -96 -45 -119v20c18 17 25 45 25 99v98z" />
    <glyph glyph-name="quotedblbase" unicode="&#x201e;" horiz-adv-x="278" 
d="M175 98h20v-98c0 -60 -11 -96 -45 -119v20c18 17 25 45 25 99v98zM75 98h20v-98c0 -60 -11 -96 -45 -119v20c18 17 25 45 25 99v98z" />
    <glyph glyph-name="quotedblright" unicode="&#x201d;" horiz-adv-x="278" 
d="M175 714h20v-118c0 -71 -10 -88 -45 -107v20c20 13 25 37 25 87v118zM75 714h20v-118c0 -71 -10 -88 -45 -107v20c20 13 25 37 25 87v118z" />
    <glyph glyph-name="guillemotright" unicode="&#xbb;" horiz-adv-x="352" 
d="M183 380v35l103 -139v-16l-103 -139v35l83 112zM90 380v35l103 -139v-16l-103 -139v35l83 112z" />
    <glyph glyph-name="ellipsis" unicode="&#x2026;" horiz-adv-x="1000" 
d="M177 98v-98h-20v98h20zM510 98v-98h-20v98h20zM843 98v-98h-20v98h20z" />
    <glyph glyph-name="perthousand" unicode="&#x2030;" horiz-adv-x="1037" 
d="M21 519c0 101 55 173 152 173c101 0 155 -72 155 -172c0 -92 -55 -170 -155 -170c-105 0 -152 81 -152 169zM41 519c0 -81 43 -149 132 -149s135 69 135 149c0 91 -43 153 -135 153s-132 -65 -132 -153zM349 157c0 101 55 173 152 173c101 0 155 -72 155 -172
c0 -92 -55 -170 -155 -170c-105 0 -152 81 -152 169zM369 157c0 -81 43 -149 132 -149s135 69 135 149c0 91 -43 153 -135 153s-132 -65 -132 -153zM709 157c0 101 55 173 152 173c101 0 155 -72 155 -172c0 -92 -55 -170 -155 -170c-105 0 -152 81 -152 169zM729 157
c0 -81 43 -149 132 -149s135 69 135 149c0 91 -43 153 -135 153s-132 -65 -132 -153zM89 -34l476 748h23l-476 -748h-23z" />
    <glyph glyph-name="questiondown" unicode="&#xbf;" 
d="M445 49h20c5 -139 -76 -238 -217 -238c-110 0 -197 60 -197 166c0 100 64 150 97 179c72 70 99 107 99 204h20c0 -90 -23 -139 -98 -212c-16 -16 -98 -69 -98 -171c0 -94 75 -146 177 -146c132 0 202 89 197 218zM248 542h20v-98h-20v98z" />
    <glyph glyph-name="grave" unicode="`" horiz-adv-x="130" 
d="M101 587l-139 144h29l125 -144h-15z" />
    <glyph glyph-name="acute" unicode="&#xb4;" horiz-adv-x="130" 
d="M142 731h29l-146 -144h-15z" />
    <glyph glyph-name="circumflex" unicode="&#x2c6;" horiz-adv-x="130" 
d="M186 592h-20l-103 123l-99 -123h-20l113 139h15z" />
    <glyph glyph-name="tilde" unicode="&#x2dc;" horiz-adv-x="130" 
d="M-47 602h-20c0 37 33 79 68 79c46 0 88 -58 127 -58c31 0 49 27 49 55h20c0 -39 -23 -75 -69 -75c-51 0 -83 58 -127 58c-28 0 -48 -34 -48 -59z" />
    <glyph glyph-name="macron" unicode="&#xaf;" horiz-adv-x="130" 
d="M181 648v-20h-232v20h232z" />
    <glyph glyph-name="breve" unicode="&#x2d8;" horiz-adv-x="130" 
d="M-58 731h20c7 -52 47 -87 100 -87c57 0 100 28 106 87h20c-8 -68 -58 -107 -126 -107c-65 0 -112 44 -120 107z" />
    <glyph glyph-name="dotaccent" unicode="&#x2d9;" horiz-adv-x="130" 
d="M55 671h20v-81h-20v81z" />
    <glyph glyph-name="dieresis" unicode="&#xa8;" horiz-adv-x="130" 
d="M-3 590h-20v81h20v-81zM153 590h-20v81h20v-81z" />
    <glyph glyph-name="ring" unicode="&#x2da;" horiz-adv-x="130" 
d="M153 674c0 -48 -40 -88 -88 -88c-47 0 -88 40 -88 88c0 47 41 88 88 88s88 -41 88 -88zM133 674c0 37 -31 68 -68 68s-68 -31 -68 -68s31 -68 68 -68s68 31 68 68z" />
    <glyph glyph-name="cedilla" unicode="&#xb8;" horiz-adv-x="130" 
d="M-25 -166l9 19c23 -8 47 -16 73 -16c37 0 78 12 78 53c0 28 -35 40 -55 40c-22 0 -39 -4 -54 -13l-15 10l57 73h20l-41 -56c9 1 15 6 33 6c39 0 75 -16 75 -60c0 -59 -46 -73 -98 -73c-35 0 -63 11 -82 17z" />
    <glyph glyph-name="hungarumlaut" unicode="&#x2dd;" horiz-adv-x="130" 
d="M87 731h29l-146 -144h-15zM237 731h29l-146 -144h-15z" />
    <glyph glyph-name="ogonek" unicode="&#x2db;" horiz-adv-x="130" 
d="M81 0h29c-76 -58 -106 -93 -106 -126c0 -21 18 -43 55 -43c42 0 64 16 77 31l17 -12c-27 -30 -62 -39 -94 -39c-50 0 -75 32 -75 62c0 50 53 94 97 127z" />
    <glyph glyph-name="caron" unicode="&#x2c7;" horiz-adv-x="130" 
d="M-56 731h20l103 -123l99 123h20l-113 -139h-15z" />
    <glyph glyph-name="emdash" unicode="&#x2014;" horiz-adv-x="1000" 
d="M870 278v-20h-740v20h740z" />
    <glyph glyph-name="AE" unicode="&#xc6;" horiz-adv-x="852" 
d="M423 274h-268l-145 -274h-22l378 714h469v-20h-392v-312h360v-20h-360v-342h392v-20h-412v274zM423 696h-47l-211 -402h258v402z" />
    <glyph glyph-name="ordfeminine" unicode="&#xaa;" horiz-adv-x="300" 
d="M246 504v48h-2c-17 -25 -67 -21 -121 -26c-53 -5 -103 -16 -103 -75c0 -47 46 -64 92 -64c86 0 134 52 134 117zM300 394v-20c-24 -1 -54 -1 -54 31v41h-2v-7c-14 -44 -61 -72 -132 -72c-58 0 -112 24 -112 84c0 79 62 91 123 95c62 3 123 -4 123 45c0 58 -31 81 -97 81
c-67 0 -101 -32 -108 -84h-20c7 65 49 104 128 104c65 0 115 -22 117 -89v-190c0 -23 17 -21 34 -19z" />
    <glyph glyph-name="Lslash" unicode="&#x141;" horiz-adv-x="481" 
d="M491 0h-437v269l-74 -52v24l74 52v421h20v-407l248 174v-24l-248 -174v-263h417v-20z" />
    <glyph glyph-name="Oslash" unicode="&#xd8;" horiz-adv-x="721" 
d="M127 114l454 503c-53 59 -127 94 -220 94c-192 0 -307 -148 -309 -354c1 -98 27 -182 75 -243zM594 601l-454 -502c52 -61 127 -96 221 -96c192 0 307 148 309 354c-1 98 -27 183 -76 244zM40 17l73 81c-53 67 -81 159 -81 259c0 203 115 374 329 374
c100 0 179 -38 234 -99l59 65l15 -12l-61 -68c54 -67 82 -159 82 -260c0 -203 -115 -374 -329 -374c-101 0 -180 38 -235 101l-71 -79z" />
    <glyph glyph-name="OE" unicode="&#x152;" horiz-adv-x="1019" 
d="M578 382h366v-20h-366v-342h414v-20h-434v65c-55 -57 -127 -82 -196 -82c-215 0 -330 171 -330 370c0 200 111 378 330 378c78 0 144 -23 196 -82v65h434v-20h-414v-312zM558 94v529c-61 63 -111 88 -196 88c-189 0 -308 -143 -310 -358c2 -202 117 -350 310 -350
c62 0 139 25 196 91z" />
    <glyph glyph-name="ordmasculine" unicode="&#xba;" horiz-adv-x="300" 
d="M0 531c0 84 53 161 151 161s150 -77 150 -161c0 -85 -52 -164 -151 -164c-97 0 -150 79 -150 164zM20 531c0 -72 48 -144 131 -144c82 0 130 72 130 144c0 70 -48 141 -130 141c-83 0 -131 -71 -131 -141z" />
    <glyph glyph-name="ae" unicode="&#xe6;" horiz-adv-x="889" 
d="M430 273h407c0 128 -65 233 -200 233c-126 0 -196 -91 -207 -233zM410 207v95h-2c-27 -39 -116 -35 -199 -41c-81 -6 -157 -24 -157 -134c0 -59 38 -119 150 -119c134 0 208 98 208 199zM84 355h-20c5 97 69 171 196 171c91 0 167 -35 170 -150h2c27 86 97 150 205 150
c155 0 226 -129 220 -273h-427c5 -136 59 -245 205 -245c101 0 185 59 199 170h20c-11 -113 -98 -189 -219 -190c-110 -1 -185 61 -212 167h-2c-20 -105 -111 -167 -217 -167c-102 0 -172 48 -172 139c0 127 91 148 177 154c141 8 201 5 201 83c0 62 -13 142 -150 142
c-107 0 -169 -55 -176 -151z" />
    <glyph glyph-name="dotlessi" unicode="&#x131;" horiz-adv-x="130" 
d="M75 0h-20v514h20v-514z" />
    <glyph glyph-name="lslash" unicode="&#x142;" horiz-adv-x="130" 
d="M55 714h20v-297l73 63v-25l-73 -63v-392h-20v375l-73 -63v25l73 63v314z" />
    <glyph glyph-name="oslash" unicode="&#xf8;" horiz-adv-x="519" 
d="M92 99l320 335c-34 44 -85 72 -152 72c-139 0 -212 -121 -212 -249c0 -58 15 -114 44 -158zM424 418l-320 -335c34 -46 87 -75 156 -75c137 0 211 119 211 249c0 59 -16 116 -47 161zM427 449l45 47l14 -14l-47 -49c34 -47 52 -110 52 -176c0 -141 -81 -269 -232 -269
c-74 0 -131 31 -170 79l-57 -59l-14 14l60 62c-33 47 -50 109 -50 173c0 140 81 269 232 269c72 0 128 -29 167 -77z" />
    <glyph glyph-name="oe" unicode="&#x153;" horiz-adv-x="890" 
d="M454 273h382c-3 126 -54 233 -189 233c-138 0 -188 -101 -193 -233zM434 257c0 128 -48 249 -191 249c-139 0 -191 -122 -191 -249c0 -124 52 -249 191 -249c146 0 191 118 191 249zM856 253h-402c-1 -158 61 -245 192 -245c117 0 167 77 183 165h20
c-18 -111 -86 -185 -203 -185c-113 0 -185 61 -201 169h-2c-22 -103 -86 -169 -200 -169c-151 0 -211 134 -211 269c0 132 56 269 211 269c111 0 184 -72 199 -176h2c18 100 78 174 202 176c148 2 210 -122 210 -258v-15z" />
    <glyph glyph-name="germandbls" unicode="&#xdf;" horiz-adv-x="481" 
d="M202 387v20c102 -2 193 36 193 154c0 91 -73 145 -164 145c-51 0 -156 -15 -156 -153v-553h-20v556c0 127 90 170 176 170c96 0 184 -61 184 -165c0 -82 -42 -147 -127 -161v-2c115 -10 164 -83 164 -188c0 -129 -61 -217 -250 -210v20c135 -7 230 37 230 190
c0 147 -96 178 -230 177z" />
    <glyph glyph-name="onesuperior" unicode="&#xb9;" horiz-adv-x="333" 
d="M181 277v385h-2c-24 -34 -74 -60 -117 -72v19c53 17 80 37 117 76h22v-408h-20z" />
    <glyph glyph-name="logicalnot" unicode="&#xac;" horiz-adv-x="600" 
d="M532 93v247h-484v20h504v-267h-20z" />
    <glyph glyph-name="mu" unicode="&#xb5;" horiz-adv-x="556" 
d="M472 514v-514h-20v127h-2c-18 -79 -84 -139 -185 -139c-66 0 -130 25 -160 93h-2v-258h-20v691h19v-338c0 -119 76 -168 163 -168c123 0 187 101 187 215v291h20z" />
    <glyph glyph-name="trademark" unicode="&#x2122;" horiz-adv-x="990" 
d="M232 302v392h-150v20h320v-20h-150v-392h-20zM496 302v412h34l162 -384l162 384h34v-412h-20v392h-2l-164 -392h-20l-164 392h-2v-392h-20z" />
    <glyph glyph-name="Eth" unicode="&#xd0;" horiz-adv-x="648" 
d="M54 362h-64v20h64v332h250c142 0 304 -76 304 -357c0 -256 -163 -357 -335 -357h-219v362zM371 362h-297v-342h204c169 0 310 107 310 337c0 267 -146 337 -289 337h-225v-312h297v-20z" />
    <glyph glyph-name="onehalf" unicode="&#xbd;" horiz-adv-x="834" 
d="M97 -34l476 748h23l-476 -748h-23zM184 277v385h-2c-24 -34 -74 -60 -117 -72v19c53 17 80 37 117 76h22v-408h-20zM495 20h275v-20h-298c0 76 72 114 139 158s127 86 127 153c0 57 -49 84 -116 84c-87 0 -123 -45 -122 -121h-20c2 90 40 141 142 141
c75 0 136 -31 136 -104c0 -54 -22 -95 -132 -166c-67 -43 -127 -84 -131 -125z" />
    <glyph glyph-name="plusminus" unicode="&#xb1;" horiz-adv-x="600" 
d="M290 308v198h20v-198h242v-20h-242v-198h-20v198h-242v20h242zM48 0v20h504v-20h-504z" />
    <glyph glyph-name="Thorn" unicode="&#xde;" horiz-adv-x="574" 
d="M74 570v-349h269c112 0 197 63 197 174c0 112 -66 175 -197 175h-269zM74 590h269c136 0 217 -66 217 -195c0 -126 -95 -194 -227 -194h-259v-201h-20v714h20v-124z" />
    <glyph glyph-name="onequarter" unicode="&#xbc;" horiz-adv-x="834" 
d="M635 122v257v2l-2 -2l-198 -257h200zM635 102h-221v25l216 281h25v-286h76v-20h-76v-102h-20v102zM144 -34l476 748h23l-476 -748h-23zM221 277v385h-2c-24 -34 -74 -60 -117 -72v19c53 17 80 37 117 76h22v-408h-20z" />
    <glyph glyph-name="divide" unicode="&#xf7;" horiz-adv-x="600" 
d="M552 243h-504v20h504v-20zM300 424c-29 0 -41 18 -41 41c0 24 18 41 41 41s41 -18 41 -41s-11 -41 -41 -41zM300 0c-29 0 -41 18 -41 41c0 24 18 41 41 41s41 -18 41 -41s-11 -41 -41 -41z" />
    <glyph glyph-name="brokenbar" unicode="&#xa6;" horiz-adv-x="222" 
d="M121 161v-250h-20v250h20zM101 661h20v-250h-20v250z" />
    <glyph glyph-name="degree" unicode="&#xb0;" horiz-adv-x="400" 
d="M323 549c0 66 -51 123 -123 123c-66 0 -123 -59 -123 -123c0 -72 57 -125 123 -125c70 0 123 55 123 125zM343 549c0 -80 -62 -145 -143 -145c-80 0 -143 63 -143 145c0 78 63 143 143 143s143 -65 143 -143z" />
    <glyph glyph-name="thorn" unicode="&#xfe;" horiz-adv-x="537" 
d="M482 258c0 132 -58 248 -199 248c-140 0 -208 -115 -208 -248c0 -159 87 -250 208 -250c152 0 199 131 199 250zM75 144v-321h-20v891h20v-344h2c26 90 93 156 206 156c144 0 219 -113 219 -268c0 -144 -66 -270 -219 -270c-105 0 -182 63 -206 156h-2z" />
    <glyph glyph-name="threequarters" unicode="&#xbe;" horiz-adv-x="834" 
d="M683 122v257v2l-2 -2l-198 -257h200zM683 102h-221v25l216 281h25v-286h76v-20h-76v-102h-20v102zM198 -34l476 748h23l-476 -748h-23zM88 559h-20c-2 87 62 133 151 133c66 0 139 -21 139 -100c0 -56 -43 -95 -102 -95v-2c59 -4 110 -35 110 -105
c0 -76 -70 -120 -149 -120c-102 0 -168 52 -162 145h20c-7 -84 54 -125 141 -125c67 0 130 34 130 100c0 74 -64 97 -129 97c-8 0 -16 0 -24 -1v21h26c60 0 119 21 119 85c0 67 -60 80 -120 80c-84 0 -130 -35 -130 -113z" />
    <glyph glyph-name="twosuperior" unicode="&#xb2;" horiz-adv-x="333" 
d="M41 297h275v-20h-298c0 76 72 114 139 158s127 86 127 153c0 57 -49 84 -116 84c-87 0 -123 -45 -122 -121h-20c2 90 40 141 142 141c75 0 136 -31 136 -104c0 -54 -22 -95 -132 -166c-67 -43 -127 -84 -131 -125z" />
    <glyph glyph-name="registered" unicode="&#xae;" horiz-adv-x="800" 
d="M274 135v430h141c97 0 142 -43 142 -116s-52 -107 -112 -112l132 -202h-25l-129 200c-10 -1 -20 -1 -31 -1h-98v-199h-20zM294 354h104c58 0 139 9 139 95c0 79 -60 96 -124 96h-119v-191zM26 357c0 207 167 374 374 374s374 -167 374 -374s-167 -374 -374 -374
s-374 167 -374 374zM46 357c0 -196 158 -354 354 -354s354 158 354 354s-158 354 -354 354s-354 -158 -354 -354z" />
    <glyph glyph-name="minus" unicode="&#x2212;" horiz-adv-x="600" 
d="M552 243h-504v20h504v-20z" />
    <glyph glyph-name="eth" unicode="&#xf0;" horiz-adv-x="519" 
d="M128 581l121 67c-24 19 -54 40 -93 60l16 14c38 -20 72 -44 96 -64l123 68l15 -16l-120 -67c142 -131 205 -250 205 -395c0 -136 -81 -259 -232 -259c-150 0 -231 123 -231 259c0 135 81 259 232 259c61 0 124 -21 162 -72h4c-40 80 -114 159 -161 199l-122 -68zM48 248
c0 -125 73 -239 212 -239c137 0 211 114 211 239c0 123 -74 239 -211 239c-139 0 -212 -116 -212 -239z" />
    <glyph glyph-name="multiply" unicode="&#xd7;" horiz-adv-x="600" 
d="M286 253l-190 190l14 13l189 -191l191 191l14 -13l-191 -190l191 -190l-14 -14l-191 191l-189 -191l-14 14z" />
    <glyph glyph-name="threesuperior" unicode="&#xb3;" horiz-adv-x="333" 
d="M44 559h-20c-2 87 62 133 151 133c66 0 139 -21 139 -100c0 -56 -43 -95 -102 -95v-2c59 -4 110 -35 110 -105c0 -76 -70 -120 -149 -120c-102 0 -168 52 -162 145h20c-7 -84 54 -125 141 -125c67 0 130 34 130 100c0 74 -64 96 -129 96h-24v21h26c60 0 119 21 119 85
c0 67 -60 80 -120 80c-84 0 -130 -35 -130 -113z" />
    <glyph glyph-name="copyright" unicode="&#xa9;" horiz-adv-x="800" 
d="M593 428h-20c-13 87 -85 131 -165 131c-125 0 -197 -89 -197 -207c0 -117 75 -212 200 -212c73 0 141 49 162 136h20c-21 -92 -91 -156 -182 -156c-134 0 -220 101 -220 231c0 131 81 228 217 228c94 0 172 -54 185 -151zM26 357c0 207 167 374 374 374
s374 -167 374 -374s-167 -374 -374 -374s-374 167 -374 374zM46 357c0 -196 158 -354 354 -354s354 158 354 354s-158 354 -354 354s-354 -158 -354 -354z" />
    <glyph glyph-name="Aacute" unicode="&#xc1;" horiz-adv-x="575" 
d="M114 255h348l-170 439h-2zM470 235h-364l-95 -235h-23l290 714h26l282 -714h-22zM365 909h29l-146 -144h-15z" />
    <glyph glyph-name="Acircumflex" unicode="&#xc2;" horiz-adv-x="575" 
d="M114 255h348l-170 439h-2zM470 235h-364l-95 -235h-23l290 714h26l282 -714h-22zM409 770h-20l-103 123l-99 -123h-20l113 139h15z" />
    <glyph glyph-name="Adieresis" unicode="&#xc4;" horiz-adv-x="575" 
d="M114 255h348l-170 439h-2zM470 235h-364l-95 -235h-23l290 714h26l282 -714h-22zM220 768h-20v81h20v-81zM376 768h-20v81h20v-81z" />
    <glyph glyph-name="Agrave" unicode="&#xc0;" horiz-adv-x="575" 
d="M114 255h348l-170 439h-2zM470 235h-364l-95 -235h-23l290 714h26l282 -714h-22zM324 765l-139 144h29l125 -144h-15z" />
    <glyph glyph-name="Aring" unicode="&#xc5;" horiz-adv-x="575" 
d="M114 255h348l-170 439h-2zM470 235h-364l-95 -235h-23l290 714h26l282 -714h-22zM376 824c0 -48 -40 -88 -88 -88c-47 0 -88 40 -88 88c0 47 41 88 88 88s88 -41 88 -88zM356 824c0 37 -31 68 -68 68s-68 -31 -68 -68s31 -68 68 -68s68 31 68 68z" />
    <glyph glyph-name="Atilde" unicode="&#xc3;" horiz-adv-x="575" 
d="M114 255h348l-170 439h-2zM470 235h-364l-95 -235h-23l290 714h26l282 -714h-22zM176 780h-20c0 37 33 79 68 79c46 0 88 -58 127 -58c31 0 49 27 49 55h20c0 -39 -23 -75 -69 -75c-51 0 -83 58 -127 58c-28 0 -48 -34 -48 -59z" />
    <glyph glyph-name="Ccedilla" unicode="&#xc7;" horiz-adv-x="685" 
d="M646 500h-20c-9 103 -109 211 -265 211c-235 0 -316 -212 -316 -360c0 -182 110 -348 303 -348c172 0 272 119 294 277h20c-24 -173 -132 -295 -309 -297l-29 -39c9 1 15 6 33 6c39 0 75 -16 75 -60c0 -59 -46 -73 -98 -73c-35 0 -63 11 -82 17l9 19c23 -8 47 -16 73 -16
c37 0 78 12 78 53c0 28 -35 40 -55 40c-22 0 -39 -4 -54 -13l-15 10l44 57c-182 8 -307 159 -307 367c0 173 93 380 336 380c189 0 282 -143 285 -231z" />
    <glyph glyph-name="Eacute" unicode="&#xc9;" horiz-adv-x="537" 
d="M74 362v-342h458v-20h-478v714h474v-20h-454v-312h427v-20h-427zM346 909h29l-146 -144h-15z" />
    <glyph glyph-name="Ecircumflex" unicode="&#xca;" horiz-adv-x="537" 
d="M74 362v-342h458v-20h-478v714h474v-20h-454v-312h427v-20h-427zM390 770h-20l-103 123l-99 -123h-20l113 139h15z" />
    <glyph glyph-name="Edieresis" unicode="&#xcb;" horiz-adv-x="537" 
d="M74 362v-342h458v-20h-478v714h474v-20h-454v-312h427v-20h-427zM201 768h-20v81h20v-81zM357 768h-20v81h20v-81z" />
    <glyph glyph-name="Egrave" unicode="&#xc8;" horiz-adv-x="537" 
d="M74 362v-342h458v-20h-478v714h474v-20h-454v-312h427v-20h-427zM305 765l-139 144h29l125 -144h-15z" />
    <glyph glyph-name="Iacute" unicode="&#xcd;" horiz-adv-x="128" 
d="M54 0v714h20v-714h-20zM141 909h29l-146 -144h-15z" />
    <glyph glyph-name="Icircumflex" unicode="&#xce;" horiz-adv-x="128" 
d="M54 0v714h20v-714h-20zM185 770h-20l-103 123l-99 -123h-20l113 139h15z" />
    <glyph glyph-name="Idieresis" unicode="&#xcf;" horiz-adv-x="128" 
d="M54 0v714h20v-714h-20zM-4 768h-20v81h20v-81zM152 768h-20v81h20v-81z" />
    <glyph glyph-name="Igrave" unicode="&#xcc;" horiz-adv-x="128" 
d="M54 0v714h20v-714h-20zM100 765l-139 144h29l125 -144h-15z" />
    <glyph glyph-name="Ntilde" unicode="&#xd1;" horiz-adv-x="648" 
d="M54 0v714h30l488 -689h2v689h20v-714h-30l-488 689h-2v-689h-20zM212 780h-20c0 37 33 79 68 79c46 0 88 -58 127 -58c31 0 49 27 49 55h20c0 -39 -23 -75 -69 -75c-51 0 -83 58 -127 58c-28 0 -48 -34 -48 -59z" />
    <glyph glyph-name="Oacute" unicode="&#xd3;" horiz-adv-x="721" 
d="M52 357c2 -206 117 -354 309 -354s307 148 309 354c-2 206 -117 354 -309 354s-307 -148 -309 -354zM32 357c0 203 115 374 329 374s329 -171 329 -374s-115 -374 -329 -374s-329 171 -329 374zM438 909h29l-146 -144h-15z" />
    <glyph glyph-name="Ocircumflex" unicode="&#xd4;" horiz-adv-x="721" 
d="M52 357c2 -206 117 -354 309 -354s307 148 309 354c-2 206 -117 354 -309 354s-307 -148 -309 -354zM32 357c0 203 115 374 329 374s329 -171 329 -374s-115 -374 -329 -374s-329 171 -329 374zM482 770h-20l-103 123l-99 -123h-20l113 139h15z" />
    <glyph glyph-name="Odieresis" unicode="&#xd6;" horiz-adv-x="721" 
d="M52 357c2 -206 117 -354 309 -354s307 148 309 354c-2 206 -117 354 -309 354s-307 -148 -309 -354zM32 357c0 203 115 374 329 374s329 -171 329 -374s-115 -374 -329 -374s-329 171 -329 374zM293 768h-20v81h20v-81zM449 768h-20v81h20v-81z" />
    <glyph glyph-name="Ograve" unicode="&#xd2;" horiz-adv-x="721" 
d="M52 357c2 -206 117 -354 309 -354s307 148 309 354c-2 206 -117 354 -309 354s-307 -148 -309 -354zM32 357c0 203 115 374 329 374s329 -171 329 -374s-115 -374 -329 -374s-329 171 -329 374zM397 765l-139 144h29l125 -144h-15z" />
    <glyph glyph-name="Otilde" unicode="&#xd5;" horiz-adv-x="721" 
d="M52 357c2 -206 117 -354 309 -354s307 148 309 354c-2 206 -117 354 -309 354s-307 -148 -309 -354zM32 357c0 203 115 374 329 374s329 -171 329 -374s-115 -374 -329 -374s-329 171 -329 374zM249 780h-20c0 37 33 79 68 79c46 0 88 -58 127 -58c31 0 49 27 49 55h20
c0 -39 -23 -75 -69 -75c-51 0 -83 58 -127 58c-28 0 -48 -34 -48 -59z" />
    <glyph glyph-name="Scaron" unicode="&#x160;" horiz-adv-x="611" 
d="M551 514h-20c-5 146 -103 197 -232 197c-101 0 -224 -36 -224 -164c0 -129 124 -144 246 -173c133 -34 244 -50 244 -199c0 -135 -130 -192 -252 -192c-162 0 -282 74 -279 254h20c0 -171 107 -234 259 -234c112 0 232 50 232 173c0 144 -140 156 -250 183
c-116 27 -240 48 -240 188c0 142 129 184 244 184c140 0 245 -57 252 -217zM185 931h20l103 -123l99 123h20l-113 -139h-15z" />
    <glyph glyph-name="Uacute" unicode="&#xda;" horiz-adv-x="632" 
d="M558 266v448h20v-448c0 -189 -94 -283 -262 -283s-262 94 -262 283v448h20v-448c0 -170 79 -263 242 -263s242 93 242 263zM393 909h29l-146 -144h-15z" />
    <glyph glyph-name="Ucircumflex" unicode="&#xdb;" horiz-adv-x="632" 
d="M558 266v448h20v-448c0 -189 -94 -283 -262 -283s-262 94 -262 283v448h20v-448c0 -170 79 -263 242 -263s242 93 242 263zM437 770h-20l-103 123l-99 -123h-20l113 139h15z" />
    <glyph glyph-name="Udieresis" unicode="&#xdc;" horiz-adv-x="632" 
d="M558 266v448h20v-448c0 -189 -94 -283 -262 -283s-262 94 -262 283v448h20v-448c0 -170 79 -263 242 -263s242 93 242 263zM248 768h-20v81h20v-81zM404 768h-20v81h20v-81z" />
    <glyph glyph-name="Ugrave" unicode="&#xd9;" horiz-adv-x="632" 
d="M558 266v448h20v-448c0 -189 -94 -283 -262 -283s-262 94 -262 283v448h20v-448c0 -170 79 -263 242 -263s242 93 242 263zM352 765l-139 144h29l125 -144h-15z" />
    <glyph glyph-name="Yacute" unicode="&#xdd;" horiz-adv-x="538" 
d="M269 322l275 392h24l-289 -413v-301h-20v301l-289 413h25zM346 931h29l-146 -144h-15z" />
    <glyph glyph-name="Ydieresis" unicode="&#x178;" horiz-adv-x="538" 
d="M269 322l275 392h24l-289 -413v-301h-20v301l-289 413h25zM201 768h-20v81h20v-81zM357 768h-20v81h20v-81z" />
    <glyph glyph-name="Zcaron" unicode="&#x17d;" 
d="M1 20h507v-20h-527v27l499 667h-471v20h491v-27zM129 931h20l103 -123l99 123h20l-113 -139h-15z" />
    <glyph glyph-name="aacute" unicode="&#xe1;" horiz-adv-x="481" 
d="M400 207v95h-2c-27 -39 -116 -35 -199 -41c-81 -6 -157 -24 -157 -134c0 -59 38 -119 150 -119c134 0 208 98 208 199zM74 355h-20c5 97 69 171 196 171c91 0 167 -35 170 -147v-327c0 -39 37 -35 65 -32v-20c-39 -3 -85 -3 -85 50v67h-2c-20 -66 -98 -129 -204 -129
c-102 0 -172 48 -172 139c0 127 91 148 177 154c141 8 201 5 201 83c0 62 -13 142 -150 142c-107 0 -169 -55 -176 -151zM318 709h29l-146 -144h-15z" />
    <glyph glyph-name="acircumflex" unicode="&#xe2;" horiz-adv-x="481" 
d="M400 207v95h-2c-27 -39 -116 -35 -199 -41c-81 -6 -157 -24 -157 -134c0 -59 38 -119 150 -119c134 0 208 98 208 199zM74 355h-20c5 97 69 171 196 171c91 0 167 -35 170 -147v-327c0 -39 37 -35 65 -32v-20c-39 -3 -85 -3 -85 50v67h-2c-20 -66 -98 -129 -204 -129
c-102 0 -172 48 -172 139c0 127 91 148 177 154c141 8 201 5 201 83c0 62 -13 142 -150 142c-107 0 -169 -55 -176 -151zM362 570h-20l-103 123l-99 -123h-20l113 139h15z" />
    <glyph glyph-name="adieresis" unicode="&#xe4;" horiz-adv-x="481" 
d="M400 207v95h-2c-27 -39 -116 -35 -199 -41c-81 -6 -157 -24 -157 -134c0 -59 38 -119 150 -119c134 0 208 98 208 199zM74 355h-20c5 97 69 171 196 171c91 0 167 -35 170 -147v-327c0 -39 37 -35 65 -32v-20c-39 -3 -85 -3 -85 50v67h-2c-20 -66 -98 -129 -204 -129
c-102 0 -172 48 -172 139c0 127 91 148 177 154c141 8 201 5 201 83c0 62 -13 142 -150 142c-107 0 -169 -55 -176 -151zM173 568h-20v81h20v-81zM329 568h-20v81h20v-81z" />
    <glyph glyph-name="agrave" unicode="&#xe0;" horiz-adv-x="481" 
d="M400 207v95h-2c-27 -39 -116 -35 -199 -41c-81 -6 -157 -24 -157 -134c0 -59 38 -119 150 -119c134 0 208 98 208 199zM74 355h-20c5 97 69 171 196 171c91 0 167 -35 170 -147v-327c0 -39 37 -35 65 -32v-20c-39 -3 -85 -3 -85 50v67h-2c-20 -66 -98 -129 -204 -129
c-102 0 -172 48 -172 139c0 127 91 148 177 154c141 8 201 5 201 83c0 62 -13 142 -150 142c-107 0 -169 -55 -176 -151zM277 565l-139 144h29l125 -144h-15z" />
    <glyph glyph-name="aring" unicode="&#xe5;" horiz-adv-x="481" 
d="M400 207v95h-2c-27 -39 -116 -35 -199 -41c-81 -6 -157 -24 -157 -134c0 -59 38 -119 150 -119c134 0 208 98 208 199zM74 355h-20c5 97 69 171 196 171c91 0 167 -35 170 -147v-327c0 -39 37 -35 65 -32v-20c-39 -3 -85 -3 -85 50v67h-2c-20 -66 -98 -129 -204 -129
c-102 0 -172 48 -172 139c0 127 91 148 177 154c141 8 201 5 201 83c0 62 -13 142 -150 142c-107 0 -169 -55 -176 -151zM329 674c0 -48 -40 -88 -88 -88c-47 0 -88 40 -88 88c0 47 41 88 88 88s88 -41 88 -88zM309 674c0 37 -31 68 -68 68s-68 -31 -68 -68s31 -68 68 -68
s68 31 68 68z" />
    <glyph glyph-name="atilde" unicode="&#xe3;" horiz-adv-x="481" 
d="M400 207v95h-2c-27 -39 -116 -35 -199 -41c-81 -6 -157 -24 -157 -134c0 -59 38 -119 150 -119c134 0 208 98 208 199zM74 355h-20c5 97 69 171 196 171c91 0 167 -35 170 -147v-327c0 -39 37 -35 65 -32v-20c-39 -3 -85 -3 -85 50v67h-2c-20 -66 -98 -129 -204 -129
c-102 0 -172 48 -172 139c0 127 91 148 177 154c141 8 201 5 201 83c0 62 -13 142 -150 142c-107 0 -169 -55 -176 -151zM129 580h-20c0 37 33 79 68 79c46 0 88 -58 127 -58c31 0 49 27 49 55h20c0 -39 -23 -75 -69 -75c-51 0 -83 58 -127 58c-28 0 -48 -34 -48 -59z" />
    <glyph glyph-name="ccedilla" unicode="&#xe7;" 
d="M449 175h20c-11 -113 -91 -184 -204 -186l-33 -45c9 1 15 6 33 6c39 0 75 -16 75 -60c0 -59 -46 -73 -98 -73c-35 0 -63 11 -82 17l9 19c23 -8 47 -16 73 -16c37 0 78 12 78 53c0 28 -35 40 -55 40c-22 0 -39 -4 -54 -13l-15 10l49 63c-137 6 -214 121 -214 256
c0 149 75 280 240 280c96 0 181 -59 194 -168h-20c-16 100 -89 148 -174 148c-164 0 -220 -139 -220 -260c0 -126 72 -238 208 -238c101 0 182 64 190 167z" />
    <glyph glyph-name="eacute" unicode="&#xe9;" 
d="M45 273h410c1 126 -70 233 -203 233c-111 0 -200 -89 -207 -233zM475 253h-430c2 -138 57 -245 203 -245c106 0 184 59 201 170h20c-14 -118 -102 -190 -219 -190c-159 -2 -225 116 -225 269c0 171 109 269 225 269c160 0 231 -132 225 -273zM327 709h29l-146 -144h-15z
" />
    <glyph glyph-name="ecircumflex" unicode="&#xea;" 
d="M45 273h410c1 126 -70 233 -203 233c-111 0 -200 -89 -207 -233zM475 253h-430c2 -138 57 -245 203 -245c106 0 184 59 201 170h20c-14 -118 -102 -190 -219 -190c-159 -2 -225 116 -225 269c0 171 109 269 225 269c160 0 231 -132 225 -273zM371 570h-20l-103 123
l-99 -123h-20l113 139h15z" />
    <glyph glyph-name="edieresis" unicode="&#xeb;" 
d="M45 273h410c1 126 -70 233 -203 233c-111 0 -200 -89 -207 -233zM475 253h-430c2 -138 57 -245 203 -245c106 0 184 59 201 170h20c-14 -118 -102 -190 -219 -190c-159 -2 -225 116 -225 269c0 171 109 269 225 269c160 0 231 -132 225 -273zM182 568h-20v81h20v-81z
M338 568h-20v81h20v-81z" />
    <glyph glyph-name="egrave" unicode="&#xe8;" 
d="M45 273h410c1 126 -70 233 -203 233c-111 0 -200 -89 -207 -233zM475 253h-430c2 -138 57 -245 203 -245c106 0 184 59 201 170h20c-14 -118 -102 -190 -219 -190c-159 -2 -225 116 -225 269c0 171 109 269 225 269c160 0 231 -132 225 -273zM286 565l-139 144h29
l125 -144h-15z" />
    <glyph glyph-name="iacute" unicode="&#xed;" horiz-adv-x="130" 
d="M75 0h-20v514h20v-514zM142 709h29l-146 -144h-15z" />
    <glyph glyph-name="icircumflex" unicode="&#xee;" horiz-adv-x="130" 
d="M75 0h-20v514h20v-514zM186 570h-20l-103 123l-99 -123h-20l113 139h15z" />
    <glyph glyph-name="idieresis" unicode="&#xef;" horiz-adv-x="130" 
d="M75 0h-20v514h20v-514zM-3 568h-20v81h20v-81zM153 568h-20v81h20v-81z" />
    <glyph glyph-name="igrave" unicode="&#xec;" horiz-adv-x="130" 
d="M75 0h-20v514h20v-514zM101 565l-139 144h29l125 -144h-15z" />
    <glyph glyph-name="ntilde" unicode="&#xf1;" 
d="M55 0v514h20v-127h2c19 79 84 139 185 139c107 0 183 -66 183 -185v-341h-20v338c0 119 -76 168 -163 168c-123 0 -187 -101 -187 -215v-291h-20zM138 580h-20c0 37 33 79 68 79c46 0 88 -58 127 -58c31 0 49 27 49 55h20c0 -39 -23 -75 -69 -75c-51 0 -83 58 -127 58
c-28 0 -48 -34 -48 -59z" />
    <glyph glyph-name="oacute" unicode="&#xf3;" horiz-adv-x="519" 
d="M28 257c0 140 81 269 232 269c150 0 231 -129 231 -269c0 -141 -81 -269 -232 -269c-150 0 -231 128 -231 269zM48 257c0 -130 73 -249 212 -249c137 0 211 119 211 249c0 128 -74 249 -211 249c-139 0 -212 -121 -212 -249zM337 709h29l-146 -144h-15z" />
    <glyph glyph-name="ocircumflex" unicode="&#xf4;" horiz-adv-x="519" 
d="M28 257c0 140 81 269 232 269c150 0 231 -129 231 -269c0 -141 -81 -269 -232 -269c-150 0 -231 128 -231 269zM48 257c0 -130 73 -249 212 -249c137 0 211 119 211 249c0 128 -74 249 -211 249c-139 0 -212 -121 -212 -249zM381 570h-20l-103 123l-99 -123h-20l113 139
h15z" />
    <glyph glyph-name="odieresis" unicode="&#xf6;" horiz-adv-x="519" 
d="M28 257c0 140 81 269 232 269c150 0 231 -129 231 -269c0 -141 -81 -269 -232 -269c-150 0 -231 128 -231 269zM48 257c0 -130 73 -249 212 -249c137 0 211 119 211 249c0 128 -74 249 -211 249c-139 0 -212 -121 -212 -249zM192 568h-20v81h20v-81zM348 568h-20v81h20
v-81z" />
    <glyph glyph-name="ograve" unicode="&#xf2;" horiz-adv-x="519" 
d="M28 257c0 140 81 269 232 269c150 0 231 -129 231 -269c0 -141 -81 -269 -232 -269c-150 0 -231 128 -231 269zM48 257c0 -130 73 -249 212 -249c137 0 211 119 211 249c0 128 -74 249 -211 249c-139 0 -212 -121 -212 -249zM296 565l-139 144h29l125 -144h-15z" />
    <glyph glyph-name="otilde" unicode="&#xf5;" horiz-adv-x="519" 
d="M28 257c0 140 81 269 232 269c150 0 231 -129 231 -269c0 -141 -81 -269 -232 -269c-150 0 -231 128 -231 269zM48 257c0 -130 73 -249 212 -249c137 0 211 119 211 249c0 128 -74 249 -211 249c-139 0 -212 -121 -212 -249zM148 580h-20c0 37 33 79 68 79
c46 0 88 -58 127 -58c31 0 49 27 49 55h20c0 -39 -23 -75 -69 -75c-51 0 -83 58 -127 58c-28 0 -48 -34 -48 -59z" />
    <glyph glyph-name="scaron" unicode="&#x161;" horiz-adv-x="463" 
d="M410 362h-20c0 103 -68 144 -166 144c-144 0 -154 -91 -154 -109c0 -51 22 -76 57 -90c36 -14 77 -23 132 -38c79 -20 165 -40 165 -138c0 -103 -97 -143 -186 -143c-135 0 -208 59 -208 188h20c0 -114 69 -168 188 -168c74 0 166 33 166 121c0 91 -89 105 -177 127
c-49 12 -86 22 -115 35c-42 18 -62 51 -62 106c0 57 46 129 174 129c114 0 186 -50 186 -164zM111 731h20l103 -123l99 123h20l-113 -139h-15z" />
    <glyph glyph-name="uacute" unicode="&#xfa;" 
d="M445 514v-514h-20v127h-2c-19 -79 -84 -139 -185 -139c-107 0 -183 66 -183 185v341h20v-338c0 -119 76 -168 163 -168c123 0 187 101 187 215v291h20zM327 709h29l-146 -144h-15z" />
    <glyph glyph-name="ucircumflex" unicode="&#xfb;" 
d="M445 514v-514h-20v127h-2c-19 -79 -84 -139 -185 -139c-107 0 -183 66 -183 185v341h20v-338c0 -119 76 -168 163 -168c123 0 187 101 187 215v291h20zM371 570h-20l-103 123l-99 -123h-20l113 139h15z" />
    <glyph glyph-name="udieresis" unicode="&#xfc;" 
d="M445 514v-514h-20v127h-2c-19 -79 -84 -139 -185 -139c-107 0 -183 66 -183 185v341h20v-338c0 -119 76 -168 163 -168c123 0 187 101 187 215v291h20zM182 568h-20v81h20v-81zM338 568h-20v81h20v-81z" />
    <glyph glyph-name="ugrave" unicode="&#xf9;" 
d="M445 514v-514h-20v127h-2c-19 -79 -84 -139 -185 -139c-107 0 -183 66 -183 185v341h20v-338c0 -119 76 -168 163 -168c123 0 187 101 187 215v291h20zM286 565l-139 144h29l125 -144h-15z" />
    <glyph glyph-name="yacute" unicode="&#xfd;" horiz-adv-x="407" 
d="M214 27l184 487h21l-237 -619c-27 -70 -74 -72 -136 -72v20c68 -1 96 4 120 66l37 96l-215 509h22zM281 731h29l-146 -144h-15z" />
    <glyph glyph-name="ydieresis" unicode="&#xff;" horiz-adv-x="407" 
d="M214 27l184 487h21l-237 -619c-27 -70 -74 -72 -136 -72v20c68 -1 96 4 120 66l37 96l-215 509h22zM136 590h-20v81h20v-81zM292 590h-20v81h20v-81z" />
    <glyph glyph-name="zcaron" unicode="&#x17e;" horiz-adv-x="407" 
d="M26 20h376v-20h-397v25l360 469h-333v20h354v-25zM83 731h20l103 -123l99 123h20l-113 -139h-15z" />
    <glyph glyph-name="Delta" unicode="&#x2206;" horiz-adv-x="643" 
d="M35 0v32l270 667h33l270 -667v-32h-573zM65 26h509l-176 444c-20 52 -62 142 -76 188h-4c-10 -37 -48 -120 -67 -171z" />
    <glyph glyph-name="Omega" unicode="&#x2126;" horiz-adv-x="734" 
d="M220 27v2c-80 66 -147 178 -147 325c0 207 136 335 297 335c169 0 291 -146 291 -332c0 -155 -76 -272 -149 -328v-2h163v-27h-221v20c88 55 176 176 176 334c0 135 -88 309 -261 309c-162 0 -265 -142 -265 -309c0 -151 89 -280 175 -334v-20h-220v27h161z" />
    <glyph glyph-name="uni03BC" unicode="&#x3bc;" horiz-adv-x="556" 
d="M472 514v-514h-20v127h-2c-18 -79 -84 -139 -185 -139c-66 0 -130 25 -160 93h-2v-258h-20v691h19v-338c0 -119 76 -168 163 -168c123 0 187 101 187 215v291h20z" />
    <glyph glyph-name="pi" unicode="&#x3c0;" horiz-adv-x="546" 
d="M517 473h-90v-329c0 -91 8 -122 16 -144h-31c-7 12 -16 46 -16 136v337h-219c-7 -142 -43 -388 -81 -473h-31c41 97 74 324 81 473c-76 0 -104 -6 -124 -14l-9 20c25 12 58 21 126 21h383z" />
    <glyph glyph-name="Euro" unicode="&#x20ac;" horiz-adv-x="556" 
d="M567 73c-58 -59 -128 -88 -210 -88c-167 0 -272 127 -296 284h-61l7 17h53c-1 7 -2 14 -2 21v21c0 19 1 39 2 58h-60l7 17h55c21 164 128 292 302 292c72 0 130 -22 186 -66l-9 -16c-56 43 -107 64 -178 64c-161 0 -262 -122 -281 -274h407l-9 -17h-400
c-1 -16 -2 -32 -2 -48c0 -18 1 -35 3 -52h378l-9 -17h-367c24 -145 120 -266 277 -266c83 0 152 32 207 97v-27z" />
    <glyph glyph-name="afii61289" unicode="&#x2113;" horiz-adv-x="460" 
d="M411 120l22 -13c-38 -69 -92 -113 -169 -113c-109 0 -153 93 -153 195v14c-19 -16 -41 -34 -62 -52l-15 23c27 24 54 45 77 68v285c0 180 76 222 132 222c75 0 111 -66 111 -146c0 -129 -88 -252 -215 -375v-24c0 -137 64 -186 128 -186c70 0 121 56 144 102zM139 535
v-270c102 107 187 213 187 332c0 72 -24 125 -87 125c-44 0 -100 -49 -100 -187z" />
    <glyph glyph-name="estimated" unicode="&#x212e;" horiz-adv-x="849" 
d="M815 330h-633c-3 0 -5 -1 -5 -4v-192c0 -8 3 -15 8 -22c61 -63 146 -104 239 -104c101 0 191 46 252 117h57c-70 -82 -184 -136 -310 -136c-215 0 -390 157 -390 351s175 352 390 352c217 0 392 -158 392 -352v-10zM671 355v193c0 8 -3 16 -9 23
c-62 60 -145 100 -238 100c-92 0 -177 -41 -238 -103c-6 -7 -9 -15 -9 -24v-189c0 -2 2 -6 5 -6h485c3 0 4 4 4 6z" />
    <glyph glyph-name="partialdiff" unicode="&#x2202;" horiz-adv-x="523" 
d="M101 683l-18 20c34 28 81 53 153 53c116 0 233 -115 233 -365c0 -211 -76 -399 -243 -399c-123 0 -180 107 -180 220c0 148 103 242 209 242c102 0 166 -77 182 -110h1c2 15 2 37 2 53c0 213 -102 333 -204 333c-63 0 -107 -24 -135 -47zM227 17h1c113 0 187 127 203 281
c-19 53 -83 130 -175 130c-94 0 -178 -93 -178 -212c0 -115 58 -199 149 -199z" />
    <glyph glyph-name="product" unicode="&#x220f;" horiz-adv-x="682" 
d="M654 650h-117v-744h-29v744h-335v-744h-29v744h-117v28h627v-28z" />
    <glyph glyph-name="summation" unicode="&#x2211;" horiz-adv-x="550" 
d="M524 -94h-502v23l292 361l-277 366v22h473v-28h-426v-4l268 -354l-285 -352v-3h457v-31z" />
    <glyph glyph-name="uni2219" unicode="&#x2219;" horiz-adv-x="278" 
d="M107 340c0 18 14 32 32 32s32 -14 32 -32s-14 -32 -32 -32s-32 14 -32 32z" />
    <glyph glyph-name="radical" unicode="&#x221a;" horiz-adv-x="551" 
d="M546 799l-220 -951h-36l-169 471l-75 -27l-10 24l107 40l148 -409c5 -18 11 -42 15 -58h1c2 16 8 37 11 54l200 856h28z" />
    <glyph glyph-name="infinity" unicode="&#x221e;" horiz-adv-x="770" 
d="M717 283v-1c0 -87 -69 -146 -145 -146c-67 0 -113 51 -186 123c-53 -57 -109 -123 -191 -123c-79 0 -142 66 -142 144c0 82 62 146 148 146c75 0 135 -67 189 -126c59 65 111 126 190 126c86 0 137 -61 137 -143zM199 164h2c69 0 125 73 169 115
c-47 54 -101 120 -179 120c-68 0 -106 -60 -106 -121c0 -63 44 -114 114 -114zM577 399h-1c-73 0 -133 -82 -171 -117c72 -72 115 -118 172 -118c69 0 109 58 109 116c0 79 -49 119 -109 119z" />
    <glyph glyph-name="integral" unicode="&#x222b;" horiz-adv-x="323" 
d="M311 805l-11 -23c-7 6 -25 12 -38 12c-14 0 -37 -5 -51 -21c-28 -32 -39 -83 -39 -183c0 -147 12 -361 12 -506c0 -115 -24 -168 -48 -197c-17 -20 -44 -34 -73 -34c-22 0 -47 10 -56 17l11 24c8 -4 26 -14 47 -14c17 0 36 10 48 25c22 26 40 71 40 181
c0 145 -12 364 -12 507c0 101 12 159 48 195c22 22 47 32 73 32c18 0 40 -8 49 -15z" />
    <glyph glyph-name="approxequal" unicode="&#x2248;" horiz-adv-x="574" 
d="M502 404l18 -15c-23 -46 -57 -87 -122 -87c-42 0 -71 18 -122 44c-32 17 -65 34 -99 34c-49 0 -79 -35 -105 -76l-19 14c30 57 76 88 131 88c49 0 87 -30 117 -45c35 -17 60 -33 101 -33c43 0 71 23 100 76zM502 247l18 -14c-23 -46 -57 -86 -122 -86
c-42 0 -70 16 -122 43c-32 17 -64 34 -99 34c-50 0 -79 -36 -105 -76l-19 14c30 58 76 88 130 88c50 0 88 -29 118 -43c34 -19 60 -35 102 -35c43 0 70 24 99 75z" />
    <glyph glyph-name="notequal" unicode="&#x2260;" horiz-adv-x="574" 
d="M395 487l-50 -106h175v-27h-188l-74 -156h262v-26h-275l-58 -122l-22 12l52 110h-164v26h177l74 156h-251v27h263l57 119z" />
    <glyph glyph-name="lessequal" unicode="&#x2264;" horiz-adv-x="574" 
d="M517 87l-457 225v27l457 225v-34l-423 -202v-2l423 -204v-35zM519 16h-466v28h466v-28z" />
    <glyph glyph-name="greaterequal" unicode="&#x2265;" horiz-adv-x="574" 
d="M60 564l457 -225v-27l-457 -225v35l422 202v2l-422 204v34zM519 16h-466v28h466v-28z" />
    <glyph glyph-name="lozenge" unicode="&#x25ca;" horiz-adv-x="553" 
d="M494 339l-205 -382h-26l-205 382l205 382h26zM462 338l-167 309c-8 14 -15 34 -20 44h-1c-5 -13 -11 -27 -20 -44l-165 -307l168 -310c10 -20 16 -33 18 -44h3c3 11 11 29 18 44z" />
    <glyph glyph-name="uni00A0" unicode="&#xa0;" horiz-adv-x="278" 
 />
    <glyph glyph-name="uni00AD" unicode="&#xad;" horiz-adv-x="333" 
d="M79 258v20h175v-20h-175z" />
    <glyph glyph-name="uni02C9" unicode="&#x2c9;" horiz-adv-x="130" 
d="M181 648v-20h-232v20h232z" />
    <glyph glyph-name="uni03A9" unicode="&#x3a9;" horiz-adv-x="734" 
d="M220 27v2c-80 66 -147 178 -147 325c0 207 136 335 297 335c169 0 291 -146 291 -332c0 -155 -76 -272 -149 -328v-2h163v-27h-221v20c88 55 176 176 176 334c0 135 -88 309 -261 309c-162 0 -265 -142 -265 -309c0 -151 89 -280 175 -334v-20h-220v27h161z" />
    <glyph glyph-name="uni2215" unicode="&#x2215;" horiz-adv-x="167" 
d="M-166 -34l476 748h23l-476 -748h-23z" />
    </font>
</defs>
</svg>
